Entradas

Neighbors 2 [2016] 720p WEB-DL Mega Subs Latino

Neighbors 2 [2016] 720p WEB-DL Mega


Título original: Neighbors 2: Sorority Rising

Director:  Nicholas Stoller
Reparto:  Seth Rogen,Zac Efron,Rose Byrne, Chloë Grace Moretz, Selena Gomez;Ike Barinholtz,Dave Franco
  
Año / País: 2016 / Estados Unidos Estados Unidos
Duración: 92 min.
Estreno: 22 de junio de 2016
Guión:  Andrew Jay Cohen, Evan Goldberg, Brendan O'Brien, Seth Rogen, Nicholas Stoller
Música: Michael Andrews
Fotografía: Brandon Trost
Productora: Universal Pictures / Good Universe / Point Grey Pictures
Género: Comedia Secuela

Sinopsis

    Secuela de "Malditos vecinos" (2014). Mac y Kelly Radner (Seth Rogen y Rose Byrne) desean vender su casa, pero no les resultará nada fácil porque está al lado de una fraternidad universitaria, donde las chicas celebran fiestas continuamente. Para enfrentarse a las descontroladas estudiantes contarán con la ayuda de Teddy (Zac Efron) y Pete (Dave Franco).

Neighbors.2.2016.720p.WEB-DL.mkv
Format                         : Matroska
Format version                 : Version 4 / Version 2
File size                      : 752 MiB
Duration                       : 1 h 32 min
Overall bit rate               : 1 134 kb/s
Encoded date                   : UTC 2016-08-10 14:51:43
Writing application            : mkvmerge v8.9.0 ('Father Daughter') 64bit
Writing library                : libebml v1.3.3 + libmatroska v1.4.4

Video
ID                             : 2
Format                         : AVC
Format/Info                    : Advanced Video Codec
Format profile                 : [email protected]
Format settings, CABAC         : Yes
Format settings, ReFrames      : 5 frames
Codec ID                       : V_MPEG4/ISO/AVC
Duration                       : 1 h 32 min
Bit rate                       : 1 068 kb/s
Width                          : 1 280 pixels
Height                         : 530 pixels
Display aspect ratio           : 2.40:1
Frame rate mode                : Constant
Frame rate                     : 23.976 (24000/1001) FPS
Color space                    : YUV
Chroma subsampling             : 4:2:0
Bit depth                      : 8 bits
Scan type                      : Progressive
Bits/(Pixel*Frame)             : 0.066
Stream size                    : 708 MiB (94%)

Audio
ID                             : 1
Format                         : AAC
Format/Info                    : Advanced Audio Codec
Format profile                 : HE-AAC / LC
Codec ID                       : A_AAC
Duration                       : 1 h 32 min
Bit rate                       : 64.0 kb/s
Channel(s)                     : 2 channels
Channel positions              : Front: L R
Sampling rate                  : 48.0 kHz / 24.0 kHz
Frame rate                     : 23.438 FPS (1024 spf)
Compression mode               : Lossy
Delay relative to video        : 31 ms
Stream size                    : 42.3 MiB (6%)
Language                       : English
Default                        : Yes
Forced                         : No

Dejá un comentario

Tu dirección de correo electrónico no será publicada. Los campos necesarios están marcados *