Entradas

Niñas Mal [Avi] Mega Peli Mexicana

Categorías

Niñas Mal Latino [Avi] Mega

Título original: Niñas mal
Año: 2007
Duración: 100 min.
País: México México
Director:  Fernando Sariñana
Guión: Issa López, Carolina Rivera (Historia: Jose Balido, Ignacio Darnaude)
Fotografía:  Chava Cartas
Reparto:Martha Higareda, Blanca Guerra, Camila Sodi, María Aura, Alejandra Adame, Ximena Sariñana, Daniel Berlanga, Víctor González, Rafael Sánchez Navarro, Mario Pérez de Alba, Roberto D'Amico, Zaide Silvia Gutiérrez, Diana Golden
Productora:Columbia Pictures Producciones Mexico
Género: Comedia | Colegios & Universidad. Adolescencia
Web oficial: http://www.ninasmal.com.mx/

Sinopsis

    Adela León es una desastrosa adolescente que presume de varios tatuajes, un "piercing" y un arresto por comportamiento inmoral. Por miedo a que su adorada hija, Adela, le arruine la oportunidad de convertirse en el Jefe de Gobierno de la Ciudad de México, su padre la inscribe en una academia para señoritas.

Niñas mal.avi
Format                         : AVI
Format/Info                    : Audio Video Interleave
File size                      : 700 MiB
Duration                       : 1 h 42 min
Overall bit rate mode          : Variable
Overall bit rate               : 953 kb/s
Writing application            : VirtualDubMod 1.5.4.1 (build 2178/release)
Writing library                : VirtualDubMod build 2178/release

Video
ID                             : 0
Format                         : MPEG-4 Visual
Format profile                 : Advanced [email protected]
Format settings, BVOP          : 1
Format settings, QPel          : No
Format settings, GMC           : No warppoints
Format settings, Matrix        : Custom
Codec ID                       : XVID
Codec ID/Hint                  : XviD
Duration                       : 1 h 42 min
Bit rate                       : 827 kb/s
Width                          : 704 pixels
Height                         : 384 pixels
Display aspect ratio           : 1.85:1
Frame rate                     : 23.976 (23976/1000) FPS
Color space                    : YUV
Chroma subsampling             : 4:2:0
Bit depth                      : 8 bits
Scan type                      : Progressive
Compression mode               : Lossy
Bits/(Pixel*Frame)             : 0.128
Stream size                    : 608 MiB (87%)
Writing library                : XviD 1.2.0SMP (UTC 2006-01-08)

Audio
ID                             : 1
Format                         : MPEG Audio
Format version                 : Version 1
Format profile                 : Layer 3
Mode                           : Joint stereo
Mode extension                 : MS Stereo
Codec ID                       : 55
Codec ID/Hint                  : MP3
Duration                       : 1 h 42 min
Bit rate mode                  : Variable
Bit rate                       : 113 kb/s
Nominal bit rate               : 128 kb/s
Channel(s)                     : 2 channels
Sampling rate                  : 48.0 kHz
Compression mode               : Lossy
Stream size                    : 83.0 MiB (12%)
Alignment                      : Aligned on interleaves
Interleave, duration           : 24  ms (0.58 video frame)
Interleave, preload duration   : 163  ms
Writing library                : LAME3.97b
Encoding settings              : -m j -V 4 -q 2 -lowpass 17 –abr 128
Language                       : Espanol

Dejá un comentario

Tu dirección de correo electrónico no será publicada. Los campos necesarios están marcados *