Entradas

Proyecto X [2012] 420p Latino Mega

Categorías

Proyecto X [2012] 420p Latino Mega


Título original: Project X
Año: 2012
Duración: 88 min.
País: Estados Unidos Estados Unidos
Director:Nima Nourizadeh
Guión:Matt Drake, Michael Bacall
Música: Varios
Fotografía:Ken Seng
Reparto: Thomas Mann, Oliver Cooper, Jonathan Daniel Brown, Kirby Bliss Blanton, Dax Flame, Miles Teller, Nichole O'Connor, Alexis Knapp, Jillian Reynolds, Martin Klebba, Rick Shapiro, Caitlin Dulany, Peter MacKenzie
Productora: WB / Green Hat Films / Silver Pictures
Género:Comedia | Adolescencia. Comedia juvenil. Falso documental. Cine independiente USA
Web oficial:http://projectxmovie.warnerbros.com/dvd/site/

Sinopsis
  
Tres estudiantes de un instituto deciden organizar una fiesta salvaje en casa de uno de ellos, promocionándola en las redes sociales como la fiesta más loca de la temporada. Además, los chicos deciden grabarla para luego colgarla en la red. Pero, poco a poco, irán surgiendo una serie de complicaciones imprevistas.

Proyecto X 420p Latino.mkv
Format                         : Matroska
Format version                 : Version 4 / Version 2
File size                      : 695 MiB
Duration                       : 1 h 27 min
Overall bit rate               : 1 106 kb/s
Encoded date                   : UTC 2015-06-19 08:39:08
Writing application            : mkvmerge v7.8.0 ('River Man') 32bit
Writing library                : libebml v1.3.1 + libmatroska v1.4.2

Video
ID                             : 1
Format                         : MPEG-4 Visual
Format profile                 : Advanced [email protected]
Format settings, BVOP          : 1
Format settings, QPel          : No
Format settings, GMC           : No warppoints
Format settings, Matrix        : Default (H.263)
Muxing mode                    : Packed bitstream
Codec ID                       : V_MS/VFW/FOURCC / XVID
Codec ID/Hint                  : XviD
Duration                       : 1 h 27 min
Bit rate                       : 992 kb/s
Width                          : 720 pixels
Height                         : 400 pixels
Display aspect ratio           : 16:9
Frame rate mode                : Constant
Frame rate                     : 23.976 (23976/1000) FPS
Color space                    : YUV
Chroma subsampling             : 4:2:0
Bit depth                      : 8 bits
Scan type                      : Progressive
Compression mode               : Lossy
Bits/(Pixel*Frame)             : 0.144
Stream size                    : 624 MiB (90%)
Writing library                : XviD 64
Default                        : Yes
Forced                         : No

Audio
ID                             : 2
Format                         : MPEG Audio
Format version                 : Version 1
Format profile                 : Layer 3
Mode                           : Joint stereo
Mode extension                 : MS Stereo
Codec ID                       : A_MPEG/L3
Codec ID/Hint                  : MP3
Duration                       : 1 h 27 min
Bit rate mode                  : Constant
Bit rate                       : 112 kb/s
Channel(s)                     : 2 channels
Sampling rate                  : 44.1 kHz
Frame rate                     : 38.281 FPS (1152 spf)
Compression mode               : Lossy
Stream size                    : 70.4 MiB (10%)
Writing library                : LAME3.99r
Encoding settings              : -m j -V 4 -q 2 -lowpass 15.6 -b 112
Language                       : Latin
Default                        : Yes
Forced                         : No

Dejá un comentario

Tu dirección de correo electrónico no será publicada. Los campos necesarios están marcados *