Entradas

Quisiera Ser Grande [1988] Dvdrip Latino Mega

Categorías

Quisiera Ser Grande [1988] Dvdrip Latino Mega

Título original: Big
Año: 1988
Duración:102 min.
País: Estados Unidos Estados Unidos
Director: Penny Marshall
Guión: Gary Ross, Anne Spielberg
Música:Howard Shore
Fotografía: Barry Sonnenfeld
Reparto:Tom Hanks, Elizabeth Perkins, Robert Loggia, John Heard, Jared Rushton, Mercedes Ruehl, Jon Lovitz, David Moscow
Productora:20th Century Fox
Género: Comedia. Fantástico | Infancia. Cine familiar

Sinopsis
   
Josh Baskin tiene trece años pero, cansado de que las chicas no le hagan caso y de que sus padres le traten como a un niño, desea ser mayor. Una noche, encuentra, en una feria, una vieja máquina que concede un deseo a cambio de una moneda. Josh, sin dudarlo un instante, pide hacerse mayor. A la mañana siguiente, descubre en el espejo un cuerpo de adulto. La otra cara de la moneda serán los problemas y responsabilidades que debe asumir sin ninguna experiencia previa


Informacion

kisiera.ser.grande.dvdrip.avi
Format                         : AVI
Format/Info                    : Audio Video Interleave
File size                      : 700 MiB
Duration                       : 1 h 44 min
Overall bit rate               : 940 kb/s
Writing application            : VirtualDubMod 1.5.4.1 (build 2178/release)
Writing library                : VirtualDubMod build 2178/release

Video
ID                             : 0
Format                         : MPEG-4 Visual
Format profile                 : Advanced [email protected]
Format settings, BVOP          : 1
Format settings, QPel          : No
Format settings, GMC           : No warppoints
Format settings, Matrix        : Custom
Codec ID                       : XVID
Codec ID/Hint                  : XviD
Duration                       : 1 h 44 min
Bit rate                       : 805 kb/s
Width                          : 608 pixels
Height                         : 464 pixels
Display aspect ratio           : 4:3
Frame rate                     : 23.976 (23976/1000) FPS
Color space                    : YUV
Chroma subsampling             : 4:2:0
Bit depth                      : 8 bits
Scan type                      : Progressive
Compression mode               : Lossy
Bits/(Pixel*Frame)             : 0.119
Stream size                    : 599 MiB (86%)
Writing library                : XviD 1.2.1 (UTC 2008-12-04)

Audio
ID                             : 1
Format                         : MPEG Audio
Format version                 : Version 1
Format profile                 : Layer 3
Mode                           : Joint stereo
Mode extension                 : MS Stereo
Codec ID                       : 55
Codec ID/Hint                  : MP3
Duration                       : 1 h 44 min
Bit rate mode                  : Constant
Bit rate                       : 128 kb/s
Channel(s)                     : 2 channels
Sampling rate                  : 48.0 kHz
Compression mode               : Lossy
Stream size                    : 95.4 MiB (14%)
Alignment                      : Aligned on interleaves
Interleave, duration           : 83  ms (2.00 video frames)
Interleave, preload duration   : 504  ms
Writing library                : LAME3.97
Encoding settings              : -m j -V 4 -q 2 -lowpass 17 -b 128

Dejá un comentario

Tu dirección de correo electrónico no será publicada. Los campos necesarios están marcados *