Entradas

Tango Y Cash [1989] 720p BrRip Latino Mega

Categorías

Tango Y Cash [1989] 720p BrRip Latino Mega

Título original: Tango & Cash
Año:  1989
Duración:98 min.
País: Estados Unidos Estados Unidos
Director: Andrei Konchalovsky
Guión: Randy Feldman
Música: Harold Faltermeyer
Fotografía: Donald E. Thorin
Reparto:Kurt Russell, Sylvester Stallone, Jack Palance, Teri Hatcher, Michael J. Pollard, Geoffrey Lewis, Brion James, Robert Z´Dar
Productora: Warner Bros
Género:Acción | Policíaco. Buddy Film
Sinopsis
    Tango y Cash son los dos policías más famosos de la ciudad. Harto de que desbaraten sus planes, un jefe de la mafia decide que, para librarse de ellos, lo mejor es manchar su imagen pública. Mediante una elaborada trampa, consigue que ambos acaben en la cárcel acusados de corrupción.

Tango.and.Cash.1989.720p.BrRip.x264.mkv

Format                         : Matroska
Format version                 : Version 4 / Version 2
File size                      : 871 MiB
Duration                       : 1 h 43 min
Overall bit rate               : 1 173 kb/s
Encoded date                   : UTC 2016-08-15 22:39:59
Writing application            : mkvmerge v8.3.0 ('Over the Horizon') 64bit
Writing library                : libebml v1.3.1 + libmatroska v1.4.2

Video
ID                             : 1
Format                         : AVC
Format/Info                    : Advanced Video Codec
Format profile                 : [email protected]
Format settings, CABAC         : Yes
Format settings, ReFrames      : 7 frames
Codec ID                       : V_MPEG4/ISO/AVC
Duration                       : 1 h 43 min
Bit rate                       : 916 kb/s
Width                          : 1 280 pixels
Height                         : 528 pixels
Display aspect ratio           : 2.40:1
Frame rate mode                : Constant
Frame rate                     : 23.976 (24000/1001) FPS
Color space                    : YUV
Chroma subsampling             : 4:2:0
Bit depth                      : 8 bits
Scan type                      : Progressive
Bits/(Pixel*Frame)             : 0.057
Stream size                    : 679 MiB (78%)
Writing library                : x264 core 125 r2200 999b753

Audio
ID                             : 2
Format                         : AC-3
Format/Info                    : Audio Coding 3
Format profile                 : Dolby Digital
Mode extension                 : CM (complete main)
Format settings, Endianness    : Big
Codec ID                       : A_AC3
Duration                       : 1 h 43 min
Bit rate mode                  : Constant
Bit rate                       : 256 kb/s
Channel(s)                     : 2 channels
Channel positions              : Front: L R
Sampling rate                  : 48.0 kHz
Frame rate                     : 31.250 FPS (1536 spf)
Compression mode               : Lossy
Stream size                    : 190 MiB (22%)
Language                       : Spanish
Default                        : Yes
Forced                         : No

Dejá un comentario

Tu dirección de correo electrónico no será publicada. Los campos necesarios están marcados *