Entradas

The Dreamers|2003|720p|BrRip|Subs Español Mega


The Dreamers|2003|720p|BrRip|Subs Español Mega

Título original: The Dreamers
Año: 2003
Duración: 120 min.
País: Reino Unido Reino Unido
Director: Bernardo Bertolucci
Guión: Gilbert Adair
Música:Varios
Fotografía: Fabio Cianchetti
Reparto: Michael Pitt, Louis Garrel, Eva Green, Robin Renucci, Anna Chancellor, Florian Cadiou
Productora:Coproducción GB-Francia-Italia; Recorded Picture Company (RPC) / Peninsula Films / Fiction Films
Género: Drama | Años 60. Adolescencia. Erótico

Sinopsis

    París, 1968. Isabelle (Eva Green) y su hermano Theo (Louis Garrel), solos en la ciudad mientras sus padres están de viaje, invitan a su apartamento a Matthew (Michael Pitt), un joven estudiante americano, al que han conocido en un cine. Una vez en casa, establecen unas reglas para conocerse mutuamente, explorando emociones y erotismo a través de una serie de juegos extremadamente arriesgados.

The Dreamers.2003.720p.BrRip.x264.mkv

Format                         : Matroska
Format version                 : Version 4 / Version 2
File size                      : 649 MiB
Duration                       : 1 h 49 min
Overall bit rate               : 827 kb/s
Encoded date                   : UTC 2015-05-27 01:32:56
Writing application            : mkvmerge v7.9.0 ('Birds') 64bit
Writing library                : libebml v1.3.1 + libmatroska v1.4.2

Video
ID                             : 1
Format                         : AVC
Format/Info                    : Advanced Video Codec
Format profile                 : [email protected]
Format settings, CABAC         : Yes
Format settings, ReFrames      : 4 frames
Codec ID                       : V_MPEG4/ISO/AVC
Duration                       : 1 h 49 min
Bit rate                       : 761 kb/s
Width                          : 1 280 pixels
Height                         : 720 pixels
Display aspect ratio           : 16:9
Frame rate mode                : Constant
Frame rate                     : 25.000 FPS
Color space                    : YUV
Chroma subsampling             : 4:2:0
Bit depth                      : 8 bits
Scan type                      : Progressive
Bits/(Pixel*Frame)             : 0.033
Stream size                    : 597 MiB (92%)
Writing library                : x264 core 116 r2074 2641b9e

Audio
ID                             : 2
Format                         : AAC
Format/Info                    : Advanced Audio Codec
Format profile                 : HE-AAC / LC
Codec ID                       : A_AAC
Duration                       : 1 h 49 min
Bit rate                       : 64.0 kb/s
Channel(s)                     : 2 channels
Channel positions              : Front: L R
Sampling rate                  : 44.1 kHz / 22.05 kHz
Frame rate                     : 21.533 FPS (1024 spf)
Compression mode               : Lossy
Stream size                    : 50.2 MiB (8%)
Language                       : English
Default                        : No
Forced                         : No

Dejá un comentario

Tu dirección de correo electrónico no será publicada. Los campos necesarios están marcados *