Entradas

The Raid: Redemption 720p Brrip Latino Mega

Categorías

The Raid: Redemption 720p Brrip Latino Mega


Título original:  Serbuan maut (The Raid: Redemption)
Año:  2011
Duración: 101 min.
País: Indonesia Indonesia
Director:  Gareth Evans
Guión:  Gareth Evans
Música: Aria Prayogi, Fajar Yuskemal
Fotografía:  Matt Flannery
Reparto: Iko Uwais, Doni Alamsyah, Joe Taslim, Yayan Ruhian, Pierre Gruno, Ray Sahetapy, Tegar Satrya, Iang Darmawan, Verdi Solaiman
Productora: Coproducción Indonesia-USA; Sony Pictures Classics / XYZ Films / Pt. Merantau Films
Género:  Acción. Thriller | Artes marciales
Grupos: The Raid Novedad

Sinopsis

Todo el mundo en Jakarta sabe que en los barrios bajos de la ciudad hay un edificio que sirve de refugio para los criminales más peligrosos de Indonesia. Algo así como una fortaleza del mal cuya leyenda crece día a día y a la que incluso la policía teme acercarse. Pese a ello, un grupo de fuerzas especiales de élite intentará derribar sus defensas y penetrar en sus entrañas. Pero la operación no sale según lo previsto, y los policías se encontrarán atrapados en el edificio, sin escapatoria posible y rodeados de asesinos y gángsters.

The Raid Redemption 720p.mkv

Format                         : Matroska
Format version                 : Version 4 / Version 2
File size                      : 1.20 GiB
Duration                       : 1 h 41 min
Overall bit rate               : 1 694 kb/s
Encoded date                   : UTC 2015-10-06 23:00:27
Writing application            : mkvmerge v8.3.0 (‘Over the Horizon’) 64bit
Writing library                : libebml v1.3.1 + libmatroska v1.4.2

Video
ID                             : 1
Format                         : AVC
Format/Info                    : Advanced Video Codec
Format settings, CABAC         : Yes
Format settings, ReFrames      : 4 frames
Codec ID                       : V_MPEG4/ISO/AVC
Duration                       : 1 h 41 min
Bit rate                       : 1 500 kb/s
Width                          : 1 280 pixels
Height                         : 720 pixels
Display aspect ratio           : 16:9
Frame rate mode                : Variable
Frame rate                     : 23.976 FPS
Color space                    : YUV
Chroma subsampling             : 4:2:0
Bit depth                      : 8 bits
Scan type                      : Progressive
Bits/(Pixel*Frame)             : 0.068
Stream size                    : 1.06 GiB (89%)
Default                        : Yes
Forced                         : No
Color range                    : Limited
Color primaries                : BT.709
Transfer characteristics       : BT.709
Matrix coefficients            : BT.709

Audio
ID                             : 2
Format                         : AC-3
Format/Info                    : Audio Coding 3
Mode extension                 : CM (complete main)
Format settings, Endianness    : Big
Codec ID                       : A_AC3
Duration                       : 1 h 41 min
Bit rate mode                  : Constant
Bit rate                       : 192 kb/s
Channel(s)                     : 2 channels
Channel positions              : Front: L R
Sampling rate                  : 44.1 kHz
Frame rate                     : 28.711 FPS (1536 spf)
Compression mode               : Lossy
Stream size                    : 139 MiB (11%)
Language                       : Spanish
Default                        : Yes
Forced                         : No

2 comentarios

Dejá un comentario

Tu dirección de correo electrónico no será publicada. Los campos necesarios están marcados *