Entradas

Un Gran Dinosaurio Brrip 720p Latino Mega 1 link

Categorías

Un Gran Dinosaurio Brrip 720p Latino Mega 1 link

Título original: The Good Dinosaur
Año: 2015
Duración: 100 min.
País:  Estados Unidos Estados Unidos
Director: Peter Sohn
Guión: Meg LeFauve (Historia: Peter Sohn, Erik Benson, Meg LeFauve, Kelsey Mann, Bob Peterson)
Música:Jeff Danna, Mychael Danna
Fotografía: Animation
Reparto: Animation
Productora:Pixar Animation Studios / Walt Disney Pictures
Género:Animación. Comedia. Aventuras | Dinosaurios. Prehistoria. Pixar. 3-D
Grupos:Pixar (Películas) Novedad

Sinopsis

    ¿Qué hubiera pasado si el asteroide que cambió para siempre la vida en la Tierra hubiera esquivado el planeta y los dinosaurios no se hubieran extinguido nunca? Un viaje al mundo de los dinosaurios donde un Apatosaurus llamado Arlo se hace amigo de un humano, aunque resulte asombroso. Mientras viaja por un paisaje desolado y misterioso, Arlo aprende a enfrentarse a sus temores y descubre de lo que es capaz.

The.Good.Dinosaur.2015.720p.BluRay.x264.mkv
Format                         : Matroska
Format version                 : Version 4 / Version 2
File size                      : 689 MiB
Duration                       : 1 h 33 min
Overall bit rate               : 1 029 kb/s
Encoded date                   : UTC 2016-03-05 14:48:00
Writing application            : mkvmerge v8.3.0 ('Over the Horizon') 64bit
Writing library                : libebml v1.3.1 + libmatroska v1.4.2

Video
ID                             : 1
Format                         : AVC
Format/Info                    : Advanced Video Codec
Format profile                 : [email protected]
Format settings, CABAC         : Yes
Format settings, ReFrames      : 4 frames
Codec ID                       : V_MPEG4/ISO/AVC
Duration                       : 1 h 33 min
Bit rate                       : 900 kb/s
Width                          : 1 280 pixels
Height                         : 534 pixels
Display aspect ratio           : 2.40:1
Original display aspect ratio  : 2.40:1
Frame rate mode                : Constant
Frame rate                     : 23.976 FPS
Color space                    : YUV
Chroma subsampling             : 4:2:0
Bit depth                      : 8 bits
Scan type                      : Progressive
Bits/(Pixel*Frame)             : 0.055
Stream size                    : 602 MiB (87%)
Writing library                : x264 core 148
Default                        : Yes
Forced                         : No

Audio
ID                             : 2
Format                         : MPEG Audio
Format version                 : Version 1
Format profile                 : Layer 3
Mode                           : Joint stereo
Mode extension                 : MS Stereo
Codec ID                       : A_MPEG/L3
Codec ID/Hint                  : MP3
Duration                       : 1 h 33 min
Bit rate mode                  : Constant
Bit rate                       : 128 kb/s
Channel(s)                     : 2 channels
Sampling rate                  : 48.0 kHz
Frame rate                     : 41.667 FPS (1152 spf)
Compression mode               : Lossy
Stream size                    : 85.7 MiB (12%)
Writing library                : LAME3.99r
Encoding settings              : -m j -V 4 -q 2 -lowpass 17 -b 128
Language                       : Spanish
Default                        : No
Forced                         : No

Dejá un comentario

Tu dirección de correo electrónico no será publicada. Los campos necesarios están marcados *