Entradas

Una Aventura Extraordinaria[life of Pi]Latino Mega

Categorías

Una Aventura Extraordinaria[life of Pi]Latino Mega 720p h264

Título original: Life of Pi
Año: 2012
Duración: 127 min.
País:  Estados Unidos Estados Unidos
Director: Ang Lee
Guión: David Magee (Novela: Yann Martel)
Música:  Mychael Danna
Fotografía: Claudio Miranda
Reparto: Suraj Sharma, Irrfan Khan, Rafe Spall, Tabu, Adril Hussain, Shravanthi Sainath, Ayush Tandon, Vibish Sivakumar, Gérard Depardieu
Productora: Fox 2000 Pictures / Haishang Films
Género: Aventuras. Drama | Aventuras marinas. Supervivencia. 3-D. Animales. Religión
Web oficial: http://www.lifeofpimovie.com/

Sinopsis

    Tras un naufragio en medio del océano Pacífico, el joven hindú Pi, hijo de un guarda de zoo que viajaba de la India a Canadá, se encuentra en un bote salvavidas con un único superviviente, un tigre de bengala con quien labrará una emocionante, increíble e inesperada relación.

Life.of.Pi.2012.720p.BRrip.x264.mkv
Format                         : Matroska
Format version                 : Version 4 / Version 2
File size                      : 1.12 GiB
Duration                       : 2 h 6 min
Overall bit rate               : 1 257 kb/s
Encoded date                   : UTC 2015-07-06 01:11:56
Writing application            : mkvmerge v7.9.0 ('Birds') 64bit
Writing library                : libebml v1.3.1 + libmatroska v1.4.2

Video
ID                             : 1
Format                         : AVC
Format/Info                    : Advanced Video Codec
Format profile                 : [email protected]
Format settings, CABAC         : Yes
Format settings, ReFrames      : 9 frames
Codec ID                       : V_MPEG4/ISO/AVC
Duration                       : 2 h 6 min
Bit rate                       : 1 032 kb/s
Width                          : 1 280 pixels
Height                         : 688 pixels
Display aspect ratio           : 1.85:1
Frame rate mode                : Constant
Frame rate                     : 23.976 (24000/1001) FPS
Color space                    : YUV
Chroma subsampling             : 4:2:0
Bit depth                      : 8 bits
Scan type                      : Progressive
Bits/(Pixel*Frame)             : 0.049
Stream size                    : 937 MiB (82%)

Audio #1
ID                             : 2
Format                         : MPEG Audio
Format version                 : Version 1
Format profile                 : Layer 3
Mode                           : Joint stereo
Mode extension                 : MS Stereo
Codec ID                       : A_MPEG/L3
Codec ID/Hint                  : MP3
Duration                       : 2 h 6 min
Bit rate mode                  : Constant
Bit rate                       : 128 kb/s
Channel(s)                     : 2 channels
Sampling rate                  : 44.1 kHz
Frame rate                     : 38.281 FPS (1152 spf)
Compression mode               : Lossy
Delay relative to video        : 1 s 0 ms
Stream size                    : 116 MiB (10%)
Language                       : Spanish
Default                        : Yes
Forced                         : No

Audio #2
ID                             : 3
Format                         : AAC
Format/Info                    : Advanced Audio Codec
Format profile                 : LC
Codec ID                       : A_AAC
Duration                       : 2 h 6 min
Bit rate                       : 96.0 kb/s
Channel(s)                     : 2 channels
Channel positions              : Front: L R
Sampling rate                  : 48.0 kHz
Frame rate                     : 46.875 FPS (1024 spf)
Compression mode               : Lossy
Stream size                    : 86.9 MiB (8%)
Language                       : English
Default                        : No
Forced                         : No

Dejá un comentario

Tu dirección de correo electrónico no será publicada. Los campos necesarios están marcados *